Author Topic: Where can i find U2 Love from June 6th, 2006?  (Read 471 times)

enaul

  • Newbie
  • *
  • Posts: 28
Where can i find U2 Love from June 6th, 2006?
« on: January 08, 2017, 12:01:49 PM »
I was strolling through my digital collection and found the 33:45 m4v that could be downloaded on iTunes after buying a 30GB ipod Video.
It contains the official I Will Follow Live From January 23, 1981at the McMordie Hall Queen's University in Belfast, Northern Ireland.
Is there an item at u2songs.com for this one?

https://www.apple.com/pr/library/2006/06/06Apple-Introduces-the-New-U2-iPod.html

Eric

Aaron

  • Administrator
  • Hero Member
  • *****
  • Posts: 2194
  • Discographer
    • http://www.u2wanderer.org
Re: Where can i find U2 Love from June 6th, 2006?
« Reply #1 on: January 08, 2017, 01:07:35 PM »
Still working on the video stuff.  But a little distracted by the tour at the moment.  I'll put it on the to do list. :)

enaul

  • Newbie
  • *
  • Posts: 28
Re: Where can i find U2 Love from June 6th, 2006?
« Reply #2 on: January 09, 2017, 12:19:10 PM »
Enclosed are screenshots in original resolution.
Filename is time in minutes-seconds.
Hope this helps.
Code: [Select]
TITLE "2006-06-06 Love U2 (itunes Exclusive With New 30GB iPod Video)"
FILE "U2 - 2006-06-06 Love U2 (itunes Exclusive With New 30GB iPod Video).m4v" WAVE
  TRACK 01 AUDIO
    TITLE "-"
    PERFORMER "-"
    INDEX 01 00:00:00
  TRACK 02 AUDIO
    TITLE "Until The End Of The World"
    PERFORMER "U2"
    INDEX 01 00:05:72
  TRACK 03 AUDIO
    TITLE "Larry Mullen"
    PERFORMER "Larry Mullen"
    INDEX 01 00:41:51
  TRACK 04 AUDIO
    TITLE "Adam Clayton"
    PERFORMER "Adam Clayton"
    INDEX 01 00:53:37
  TRACK 05 AUDIO
    TITLE "Bono"
    PERFORMER "Bono"
    INDEX 01 01:10:38
  TRACK 06 AUDIO
    TITLE "Edge"
    PERFORMER "Edge"
    INDEX 01 01:18:71
  TRACK 07 AUDIO
    TITLE "Bono"
    PERFORMER "Bono"
    INDEX 01 01:22:65
  TRACK 08 AUDIO
    TITLE "Adam Clayton"
    PERFORMER "Adam Clayton"
    INDEX 01 01:43:43
  TRACK 09 AUDIO
    TITLE "Pop Muzik (Popmart Live From Mexico City 1997)"
    PERFORMER "U2"
    INDEX 01 01:55:60
  TRACK 10 AUDIO
    TITLE "Mofo (Popmart Live From Mexico City 1997)"
    PERFORMER "U2"
    INDEX 01 03:40:59
  TRACK 11 AUDIO
    TITLE "I Will Follow (Live 1981-01-23 Belfast, Northern Ireland, Queen's University, McMordie Hall)"
    PERFORMER "U2"
    INDEX 01 08:21:18
  TRACK 12 AUDIO
    TITLE "LoveTown Special"
    PERFORMER "LoveTown Special"
    INDEX 01 11:41:67
  TRACK 13 AUDIO
    TITLE "Edge"
    PERFORMER "Edge"
    INDEX 01 11:56:33
  TRACK 14 AUDIO
    TITLE "God Part II - I Feel Love (snippet) (LoveTown Tour, Sydney, 1989)"
    PERFORMER "U2"
    INDEX 01 12:02:55
  TRACK 15 AUDIO
    TITLE "Edge"
    PERFORMER "Edge"
    INDEX 01 15:16:04
  TRACK 16 AUDIO
    TITLE "Bono"
    PERFORMER "Bono"
    INDEX 01 15:18:55
  TRACK 17 AUDIO
    TITLE "Edge"
    PERFORMER "Edge"
    INDEX 01 15:51:67
  TRACK 18 AUDIO
    TITLE "Larry Mullen"
    PERFORMER "Larry Mullen"
    INDEX 01 16:03:18
  TRACK 19 AUDIO
    TITLE "Edge"
    PERFORMER "Edge"
    INDEX 01 16:17:24
  TRACK 20 AUDIO
    TITLE "Bono"
    PERFORMER "Bono"
    INDEX 01 16:41:54
  TRACK 21 AUDIO
    TITLE "Where The Streets Have No Name (Zoo TV Live From Sydney 1993)"
    PERFORMER "U2"
    INDEX 01 16:46:14
  TRACK 22 AUDIO
    TITLE "Bono"
    PERFORMER "Bono"
    INDEX 01 21:37:38
  TRACK 23 AUDIO
    TITLE "Bono"
    PERFORMER "Bono"
    INDEX 01 21:45:65
  TRACK 24 AUDIO
    TITLE "Adam Clayton"
    PERFORMER "Adam Clayton"
    INDEX 01 21:50:49
  TRACK 25 AUDIO
    TITLE "Bono"
    PERFORMER "Bono"
    INDEX 01 21:56:34
  TRACK 26 AUDIO
    TITLE "Larry Mullen"
    PERFORMER "Larry Mullen"
    INDEX 01 22:01:01
  TRACK 27 AUDIO
    TITLE "Beautiful Day (Elevation Live From Boston, 2001)"
    INDEX 01 22:05:71
  TRACK 28 AUDIO
    TITLE "Edge"
    PERFORMER "Edge"
    INDEX 01 26:47:44
  TRACK 29 AUDIO
    TITLE "Willie Williams"
    PERFORMER "Willie Williams"
    INDEX 01 27:03:66
  TRACK 30 AUDIO
    TITLE "Edge"
    PERFORMER "Edge"
    INDEX 01 27:26:17
  TRACK 31 AUDIO
    TITLE "Adam Clayton"
    PERFORMER "Adam Clayton"
    INDEX 01 27:48:03
  TRACK 32 AUDIO
    TITLE "City Of Blinding Lights (Filmed In Milan 2005)"
    PERFORMER "U2"
    INDEX 01 27:50:18
  TRACK 33 AUDIO
    TITLE "-"
    PERFORMER "-"
    INDEX 01 33:36:65
  TRACK 34 AUDIO
    TITLE "Solo Too"
    PERFORMER "Solo Too"
    INDEX 01 33:36:68
  TRACK 35 AUDIO
    TITLE "-"
    PERFORMER "-"
    INDEX 01 33:41:38
« Last Edit: January 11, 2017, 11:06:57 AM by enaul »

Aaron

  • Administrator
  • Hero Member
  • *****
  • Posts: 2194
  • Discographer
    • http://www.u2wanderer.org
Re: Where can i find U2 Love from June 6th, 2006?
« Reply #3 on: January 14, 2017, 03:14:31 PM »
Huge help!  We'll get to this one as soon as the dust clears on Tuesday :)